The.First.Slam.Dunk.2022.MULTi.1080p.WEB.x264-FW (VOSTFR, VF) :: Nyaa ISS

The.First.Slam.Dunk.2022.MULTi.1080p.WEB.x264-FW (VOSTFR, VF)

Category:
Date:
2024-04-03 08:19 UTC
Submitter:
Anonymous
Seeders:
27
Information:
No information.
Leechers:
0
File size:
3.3 GiB
Completed:
706
Info hash:
508f78b8905f2be85fc91dbc012ff474923d9a1e
Simple partage de cette release que j’ai trouvé sur un tracker francophone Plus d'infos sur le film : https://www.nautiljon.com/animes/the+first+slam+dunk.html Lien de téléchargement : https://multiup.io/c919cdf554427c44def47622fd138209 Source : myCANAL (FW) nfo : General Unique ID : 308376122611770715514457639156890361905 (0xE7FF14B3B68C11A5D729F46CCF6A6031) Complete name : The.First.Slam.Dunk.2022.MULTi.1080p.WEB.x264-FW.mkv Format : Matroska Format version : Version 4 File size : 3.26 GiB Duration : 1 h 59 min Overall bit rate : 3 912 kb/s Frame rate : 25.000 FPS Movie name : The First Slam Dunk Encoded date : 2024-04-02 18:42:16 UTC Writing application : mkvmerge v83.0 ('Circle Of Friends') 64-bit Writing library : libebml v1.4.5 + libmatroska v1.7.1 Attachments : OpenSans-Regular.ttf / OpenSans-Bold.ttf / OpenSans-Italic.ttf / OpenSans-BoldItalic.ttf Video ID : 1 Format : AVC Format/Info : Advanced Video Codec Format profile : [email protected] Format settings : CABAC / 4 Ref Frames Format settings, CABAC : Yes Format settings, Reference frames : 4 frames Codec ID : V_MPEG4/ISO/AVC Duration : 1 h 59 min Bit rate mode : Constant Bit rate : 3 140 kb/s Nominal bit rate : 4 500 kb/s Width : 1 920 pixels Height : 1 080 pixels Display aspect ratio : 16:9 Frame rate mode : Constant Frame rate : 25.000 FPS Color space : YUV Chroma subsampling : 4:2:0 Bit depth : 8 bits Scan type : Progressive Bits/(Pixel*Frame) : 0.061 Stream size : 2.62 GiB (80%) Writing library : x264 core 157 r2965 861cec4 Encoding settings : cabac=1 / ref=2 / deblock=1:0:0 / analyse=0x3:0x113 / me=hex / subme=7 / psy=1 / psy_rd=1.00:0.00 / mixed_ref=1 / me_range=16 / chroma_me=1 / trellis=1 / 8x8dct=1 / cqm=0 / deadzone=21,11 / fast_pskip=1 / chroma_qp_offset=-2 / threads=24 / lookahead_threads=4 / sliced_threads=0 / slices=1 / nr=0 / decimate=1 / interlaced=0 / bluray_compat=0 / constrained_intra=0 / bframes=7 / b_pyramid=2 / b_adapt=1 / b_bias=0 / direct=1 / weightb=1 / open_gop=0 / weightp=2 / keyint=50 / keyint_min=1 / scenecut=0 / intra_refresh=0 / rc_lookahead=40 / rc=cbr / mbtree=1 / bitrate=4500 / ratetol=1.0 / qcomp=0.60 / qpmin=0 / qpmax=69 / qpstep=4 / vbv_maxrate=4500 / vbv_bufsize=4500 / nal_hrd=cbr / filler=1 / ip_ratio=1.40 / aq=1:1.00 Default : Yes Forced : No Color range : Limited Color primaries : BT.709 Transfer characteristics : BT.709 Matrix coefficients : BT.709 Audio #1 ID : 2 Format : E-AC-3 Format/Info : Enhanced AC-3 Commercial name : Dolby Digital Plus Codec ID : A_EAC3 Duration : 1 h 59 min Bit rate mode : Constant Bit rate : 384 kb/s Channel(s) : 2 channels Channel layout : L R Sampling rate : 48.0 kHz Frame rate : 31.250 FPS (1536 SPF) Compression mode : Lossy Stream size : 328 MiB (10%) Language : French Service kind : Complete Main Default : Yes Forced : No Audio #2 ID : 3 Format : E-AC-3 Format/Info : Enhanced AC-3 Commercial name : Dolby Digital Plus Codec ID : A_EAC3 Duration : 1 h 59 min Bit rate mode : Constant Bit rate : 384 kb/s Channel(s) : 2 channels Channel layout : L R Sampling rate : 48.0 kHz Frame rate : 31.250 FPS (1536 SPF) Compression mode : Lossy Stream size : 328 MiB (10%) Language : Japanese Service kind : Complete Main Default : No Forced : No Text #1 ID : 4 Format : ASS Codec ID : S_TEXT/ASS Codec ID/Info : Advanced Sub Station Alpha Duration : 1 h 58 min Bit rate : 62 b/s Frame rate : 0.163 FPS Count of elements : 1156 Compression mode : Lossless Stream size : 54.0 KiB (0%) Language : French Default : No Forced : No Text #2 ID : 5 Format : ASS Codec ID : S_TEXT/ASS Codec ID/Info : Advanced Sub Station Alpha Duration : 1 h 58 min Bit rate : 158 b/s Frame rate : 0.330 FPS Count of elements : 2349 Compression mode : Lossless Stream size : 138 KiB (0%) Title : SDH Language : French Default : No Forced : No

File list