[MagicStar] Sahara Sensei to Toki-kun EP07 [WEBDL] [1080p] [AMZN] :: Nyaa ISS

[MagicStar] Sahara Sensei to Toki-kun EP07 [WEBDL] [1080p] [AMZN]

Category:
Date:
2024-04-03 03:26 UTC
Submitter:
Seeders:
4
Information:
Leechers:
0
File size:
971.2 MiB
Completed:
321
Info hash:
b7db606c3bdf6afadf6a818a39d40b55a2cca4c8
HD 1080p from Prime Video. Use CBR bitrate mode. ************** We are planning to upload all Prime Video Japan Dramas and Movies, we need your Support! ************** Support Us Ali (Zhifubao / QR code): https://i.ibb.co/FWV2ggm/1660626347125.png PayPalMe: https://www.paypal.com/paypalme/sakuragikenji ETH (ERC20): 0xea3286E176099E8C9aBaf25A0edf231374C04E89 USDT (BTC / OMNI): 1Lemw6fu5vG3NdvWGxDxsPX7T7yUb3rNzu ************** ![alt text](https://i.ibb.co/TB5565P/7193cc76-18fd-47cf-8943-8215e9c3d1e0b.jpg) ![alt text](https://i.ibb.co/YBKHkC7/Sahara-Sensei-to-Toki-kun-EP07-1080p-AMZN-WEB-DL-DDP2-0-H-264-Magic-Star-mkv.jpg) ``` General Unique ID : 313955121854344668760850083822426427893 (0xEC318E99FF2544DE56A3A779EB6891F5) Complete name : Sahara.Sensei.to.Toki.kun.EP07.1080p.AMZN.WEB-DL.DDP2.0.H.264-MagicStar.mkv Format : Matroska Format version : Version 4 File size : 971 MiB Duration : 24 min 0 s Overall bit rate mode : Constant Overall bit rate : 5 657 kb/s Frame rate : 23.976 FPS Encoded date : 2024-03-05 02:45:41 UTC Writing application : mkvmerge v50.0.0 ('Awakenings') 64-bit Writing library : libebml v1.4.0 + libmatroska v1.6.2 Cover : Yes Attachments : cover.png Video ID : 1 Format : AVC Format/Info : Advanced Video Codec Format profile : High@L4 Format settings : CABAC / 4 Ref Frames Format settings, CABAC : Yes Format settings, Reference fra : 4 frames Codec ID : V_MPEG4/ISO/AVC Duration : 24 min 0 s Bit rate mode : Constant Bit rate : 5 418 kb/s Nominal bit rate : 10 000 kb/s Width : 1 920 pixels Height : 1 080 pixels Display aspect ratio : 16:9 Frame rate mode : Constant Frame rate : 23.976 (24000/1001) FPS Color space : YUV Chroma subsampling : 4:2:0 Bit depth : 8 bits Scan type : Progressive Bits/(Pixel*Frame) : 0.109 Stream size : 930 MiB (96%) Default : Yes Forced : No Color range : Limited Color primaries : BT.709 Transfer characteristics : BT.709 Matrix coefficients : BT.709 Audio ID : 2 Format : E-AC-3 Format/Info : Enhanced AC-3 Commercial name : Dolby Digital Plus Codec ID : A_EAC3 Duration : 24 min 0 s Bit rate mode : Constant Bit rate : 224 kb/s Channel(s) : 2 channels Channel layout : L R Sampling rate : 48.0 kHz Frame rate : 31.250 FPS (1536 SPF) Compression mode : Lossy Stream size : 38.5 MiB (4%) Title : 日本語 [オリジナル] Language : Japanese Service kind : Complete Main Default : Yes Forced : No ```

File list