[MagicStar] Golgo 13 1973 [WEBDL] [1080p] [DMM-TV] :: Nyaa ISS

[MagicStar] Golgo 13 1973 [WEBDL] [1080p] [DMM-TV]

Category:
Date:
2023-01-28 08:45 UTC
Submitter:
Seeders:
1
File size:
3.4 GiB
Completed:
432
Info hash:
6956fe86ebb099890b8dd4033a118f7885120b80
HD 1080p from DMM TV. As requested by user @RyzakiT. If there are users who are interested in these movies, please also help us complete this torrent, thank you! MEGA Link: https://mega.nz/#P!AgAOLkUdssmqn0DKD1DI7YUURE7wxydkkqBeh20ixQcv3VnktdXpmPuiHs59Utkp60pOeJXTvCH3nkmntRi-e66xSXYxqVmeGFlvVCJJ7cGFiFxIYEi_Kg Password: golgosatomi ************** Support Us Ali (Zhifubao / QR code): https://i.ibb.co/FWV2ggm/1660626347125.png PayPalMe: https://www.paypal.com/paypalme/sakuragikenji ************** ![alt text](https://i.ibb.co/9Hv5h4g/Golgo-13.jpg) ![alt text](https://i.ibb.co/ZHPSN9R/Golgo-13-1973-1080p-DMM-TV-WEB-DL-AAC2-0-H-264-Magic-Star-mkv.jpg) ``` General Unique ID : 136460140445360113667753593337388050367 (0x66A9445EB1692A629CC4522EE249A7BF) Complete name : Golgo.13.1973.1080p.DMM-TV.WEB-DL.AAC2.0.H.264-MagicStar.mkv Format : Matroska Format version : Version 4 File size : 3.38 GiB Duration : 1 h 44 min Overall bit rate : 4 650 kb/s Encoded date : UTC 2023-01-26 00:53:50 Writing application : mkvmerge v50.0.0 ('Awakenings') 64-bit Writing library : libebml v1.4.0 + libmatroska v1.6.2 Cover : Yes Attachments : cover.png Video ID : 1 Format : AVC Format/Info : Advanced Video Codec Format profile : High@L4 Format settings : CABAC / 4 Ref Frames Format settings, CABAC : Yes Format settings, Reference fra : 4 frames Codec ID : V_MPEG4/ISO/AVC Duration : 1 h 44 min Bit rate : 4 381 kb/s Width : 1 920 pixels Height : 1 080 pixels Display aspect ratio : 16:9 Frame rate mode : Constant Frame rate : 23.976 (24000/1001) FPS Color space : YUV Chroma subsampling : 4:2:0 Bit depth : 8 bits Scan type : Progressive Bits/(Pixel*Frame) : 0.088 Stream size : 3.18 GiB (94%) Writing library : x264 core 164 r3081 19856cc Encoding settings : cabac=1 / ref=4 / deblock=1:0:0 / analyse=0x3:0x131 / me=umh / subme=9 / psy=1 / psy_rd=1.00:0.00 / mixed_ref=1 / me_range=48 / chroma_me=1 / trellis=2 / 8x8dct=1 / cqm=0 / deadzone=21,11 / fast_pskip=1 / chroma_qp_offset=-2 / threads=8 / lookahead_threads=1 / sliced_threads=0 / nr=0 / decimate=1 / interlaced=0 / bluray_compat=0 / stitchable=1 / constrained_intra=0 / bframes=4 / b_pyramid=2 / b_adapt=1 / b_bias=0 / direct=3 / weightb=1 / open_gop=0 / weightp=2 / keyint=240 / keyint_min=48 / scenecut=0 / intra_refresh=0 / rc_lookahead=48 / rc=crf / mbtree=1 / crf=23.0 / qcomp=0.60 / qpmin=6 / qpmax=51 / qpstep=4 / vbv_maxrate=8000 / vbv_bufsize=8000 / crf_max=0.0 / nal_hrd=none / filler=0 / ip_ratio=1.40 / aq=3:1.50 Language : English Default : Yes Forced : No Color range : Limited Color primaries : BT.709 Transfer characteristics : BT.709 Matrix coefficients : BT.709 Audio ID : 2 Format : AAC LC Format/Info : Advanced Audio Codec Low Complexity Codec ID : A_AAC-2 Duration : 1 h 44 min Bit rate : 256 kb/s Channel(s) : 2 channels Channel layout : L R Sampling rate : 48.0 kHz Frame rate : 46.875 FPS (1024 SPF) Compression mode : Lossy Stream size : 190 MiB (6%) Title : 日本語 [オリジナル] Language : Japanese Default : Yes Forced : No ```

File list

This one is a very crappy upscale