[MagicStar] Kougan no Wakamusha Oda Nobunaga 1955 [WEBDL] [1080p] [U-NEXT] :: Nyaa ISS

[MagicStar] Kougan no Wakamusha Oda Nobunaga 1955 [WEBDL] [1080p] [U-NEXT]

Category:
Date:
2023-01-24 22:34 UTC
Submitter:
Seeders:
3
File size:
2.7 GiB
Completed:
98
Info hash:
9119bea47883efa0265417c4145b8477f675e5cc
HD 1080p from U-NEXT. As requested by user @RyzakiT. Upload two sources, because Amazon's source does not handle interlacing, so we decided to upload U-Next's source separately. Also backed up the MEGA link. If there are users who are interested in these movies, please also help us complete this torrent, thank you! MEGA Link: https://mega.nz/#P!AgBfvFPEkEHd7xj6WpFggV92aSZJ2oRvt9Y9o5407uobR1GBk6EeArCGy5od21SChL67mP327ezrSEPuysSiP4yMYjWitsMTpXSILoG-a5lEtXL7TzSUXQ Password: nobunaga1950s ************** Support Us Ali (Zhifubao / QR code): https://i.ibb.co/FWV2ggm/1660626347125.png PayPalMe: https://www.paypal.com/paypalme/sakuragikenji ************** ![alt text](https://i.ibb.co/mctLdp9/812slbtn-E5-L.jpg) ![alt text](https://i.ibb.co/sQxBN1v/Kurenaigao-no-Wakamusha-Oda-Nobunaga-1955-1080p-U-NEXT-WEB-DL-AAC2-0-H-264-Magic-Star-mkv.jpg) ``` General Unique ID : 326559645575312776832826238510374655540 (0xF5AD1999E006D619CF977E0998A11634) Complete name : Kurenaigao.no.Wakamusha.Oda.Nobunaga.1955.1080p.U-NEXT.WEB-DL.AAC2.0.H.264-MagicStar.mkv Format : Matroska Format version : Version 4 File size : 2.66 GiB Duration : 1 h 31 min Overall bit rate : 4 146 kb/s Encoded date : UTC 2023-01-24 20:46:34 Writing application : mkvmerge v50.0.0 ('Awakenings') 64-bit Writing library : libebml v1.4.0 + libmatroska v1.6.2 Cover : Yes Attachments : cover.png Video ID : 1 Format : AVC Format/Info : Advanced Video Codec Format profile : [email protected] Format settings : CABAC / 2 Ref Frames Format settings, CABAC : Yes Format settings, Reference fra : 2 frames Codec ID : V_MPEG4/ISO/AVC Duration : 1 h 31 min Bit rate : 4 020 kb/s Width : 1 920 pixels Height : 1 080 pixels Display aspect ratio : 16:9 Frame rate mode : Constant Frame rate : 23.976 (24000/1001) FPS Original frame rate : 23.976 (23976/1000) FPS Color space : YUV Chroma subsampling : 4:2:0 Bit depth : 8 bits Scan type : Progressive Bits/(Pixel*Frame) : 0.081 Stream size : 2.57 GiB (97%) Writing library : x264 core 148 r2665kMod a01e339 Encoding settings : cabac=1 / ref=2 / deblock=1:1:1 / analyse=0x1:0x111 / me=tesa / subme=11 / psy=1 / fade_compensate=0.00 / psy_rd=0.40:0.10 / mixed_ref=1 / me_range=48 / chroma_me=1 / trellis=2 / 8x8dct=0 / cqm=0 / deadzone=21,11 / fast_pskip=1 / chroma_qp_offset=-3 / threads=12 / lookahead_threads=1 / sliced_threads=0 / nr=0 / decimate=1 / interlaced=0 / bluray_compat=0 / constrained_intra=0 / fgo=0 / bframes=2 / b_pyramid=0 / b_adapt=2 / b_bias=0 / direct=3 / weightb=1 / open_gop=0 / weightp=2 / keyint=48 / keyint_min=25 / scenecut=0 / intra_refresh=0 / rc_lookahead=48 / rc=2pass / mbtree=1 / bitrate=4020 / ratetol=1.0 / qcomp=0.80 / qpmin=10 / qpmax=69 / qpstep=15 / cplxblur=20.0 / qblur=0.5 / vbv_maxrate=8050 / vbv_bufsize=8050 / nal_hrd=none / filler=0 / ip_ratio=1.40 / aq=2:0.60 Default : Yes Forced : No Audio ID : 2 Format : AAC LC Format/Info : Advanced Audio Codec Low Complexity Codec ID : A_AAC-2 Duration : 1 h 31 min Bit rate : 125 kb/s Channel(s) : 2 channels Channel layout : L R Sampling rate : 48.0 kHz Frame rate : 46.875 FPS (1024 SPF) Compression mode : Lossy Stream size : 82.2 MiB (3%) Title : 日本語 [オリジナル] Language : Japanese Default : Yes Forced : No ```

File list