[MagicStar] Otto wo Shakaiteki ni Massatsusuru Itsutsu no Houhou EP02 [WEBDL] [1080p] [AMZN] :: Nyaa ISS

[MagicStar] Otto wo Shakaiteki ni Massatsusuru Itsutsu no Houhou EP02 [WEBDL] [1080p] [AMZN]

Category:
Date:
2023-01-24 04:50 UTC
Submitter:
Seeders:
10
Information:
Leechers:
11
File size:
1.5 GiB
Completed:
369
Info hash:
bffaf88987131063066598fc1c53b32df92ca2c0
HD 1080p from Prime Video. Use CBR bitrate mode. ************** We are planning to upload all prime video japan Dramas and Movies, we need your Support! ************** Support Us Ali (Zhifubao / QR code): https://i.ibb.co/FWV2ggm/1660626347125.png PayPalMe: https://www.paypal.com/paypalme/sakuragikenji ************** ![alt text](https://i.ibb.co/FVfzR0R/96411866977.jpg) ![alt text](https://i.ibb.co/17zSN0c/Otto-wo-Shakaiteki-ni-Massatsusuru-Itsutsu-no-Houhou-EP02-1080p-AMZN-WEB-DL-DDP2-0-H-264-Magic-Star.jpg) ``` General Unique ID : 335458307970812138250626108609137518558 (0xFC5EEB87D6129739FCEDB8D26C5CA7DE) Complete name : Otto.wo.Shakaiteki.ni.Massatsusuru.Itsutsu.no.Houhou.EP02.1080p.AMZN.WEB-DL.DDP2.0.H.264-MagicStar.mkv Format : Matroska Format version : Version 4 File size : 1.50 GiB Duration : 23 min 15 s Overall bit rate mode : Constant Overall bit rate : 9 265 kb/s Encoded date : UTC 2023-01-19 05:22:20 Writing application : mkvmerge v50.0.0 ('Awakenings') 64-bit Writing library : libebml v1.4.0 + libmatroska v1.6.2 Cover : Yes Attachments : cover.png Video ID : 1 Format : AVC Format/Info : Advanced Video Codec Format profile : [email protected] Format settings : CABAC / 4 Ref Frames Format settings, CABAC : Yes Format settings, Reference fra : 4 frames Codec ID : V_MPEG4/ISO/AVC Duration : 23 min 14 s Bit rate mode : Constant Bit rate : 9 038 kb/s Nominal bit rate : 10 000 kb/s Width : 1 920 pixels Height : 1 080 pixels Display aspect ratio : 16:9 Frame rate mode : Constant Frame rate : 29.970 (29970/1000) FPS Original frame rate : 29.970 (30000/1001) FPS Color space : YUV Chroma subsampling : 4:2:0 Bit depth : 8 bits Scan type : Progressive Bits/(Pixel*Frame) : 0.145 Stream size : 1.47 GiB (98%) Default : Yes Forced : No Color range : Limited Color primaries : BT.709 Transfer characteristics : BT.709 Matrix coefficients : BT.709 Audio ID : 2 Format : E-AC-3 Format/Info : Enhanced AC-3 Commercial name : Dolby Digital Plus Codec ID : A_EAC3 Duration : 23 min 15 s Bit rate mode : Constant Bit rate : 224 kb/s Channel(s) : 2 channels Channel layout : L R Sampling rate : 48.0 kHz Frame rate : 31.250 FPS (1536 SPF) Compression mode : Lossy Stream size : 37.3 MiB (2%) Language : Japanese Service kind : Complete Main Default : Yes Forced : No ```

File list