[DVDISO] Cromartie High School - Le Bahut des Tordus [R2 PAL] [FR-NL]

Category:
Date:
2021-02-23 18:32 UTC
Submitter:
Seeders:
1
Information:
No information.
Leechers:
4
File size:
18.9 GiB
Completed:
7
Info hash:
92883046eb281dfb2637e5094958ed4fb7d51b6a
Ripped from the French DVD release. Includes French and Dutch Subtitles Mediainfo: ``` General Unique ID : 76703843675735628321481070359280082927 (0x39B49F78E542ACC6B228A60C20BFDFEF) Complete name : D:\Cromartie High School\Videos\DVD1\title_t00.mkv Format : Matroska Format version : Version 2 File size : 562 MiB Duration : 12 min 1 s Overall bit rate : 6 537 kb/s Encoded date : UTC 2021-02-23 17:51:46 Writing application : MakeMKV v1.15.4 win(x64-release) Writing library : libmakemkv v1.15.4 (1.3.10/1.5.2) win(x64-release) Video ID : 1 ID in the original source medium : 224 (0xE0) Format : MPEG Video Format version : Version 2 Format profile : [email protected] Format settings : BVOP Format settings, BVOP : Yes Format settings, Matrix : Default Format settings, GOP : M=3, N=13 Format settings, picture structure : Frame Codec ID : V_MPEG2 Codec ID/Info : MPEG 1 or 2 Video Duration : 12 min 1 s Bit rate mode : Constant Bit rate : 6 300 kb/s Width : 720 pixels Height : 576 pixels Display aspect ratio : 4:3 Frame rate mode : Constant Frame rate : 25.000 FPS Standard : PAL Color space : YUV Chroma subsampling : 4:2:0 Bit depth : 8 bits Scan type : Interlaced Scan order : Top Field First Compression mode : Lossy Bits/(Pixel*Frame) : 0.608 Time code of first frame : 10:00:12:12 Time code source : Group of pictures header GOP, Open/Closed : Open Stream size : 542 MiB (96%) Language : English Default : No Forced : No Color primaries : BT.601 PAL Transfer characteristics : BT.470 System B/G Matrix coefficients : BT.470 System B/G Original source medium : DVD-Video Audio ID : 2 ID in the original source medium : 189 (0xBD)128 (0x80) Format : AC-3 Format/Info : Audio Coding 3 Commercial name : Dolby Digital Codec ID : A_AC3 Duration : 12 min 1 s Bit rate mode : Constant Bit rate : 224 kb/s Channel(s) : 2 channels Channel layout : L R Sampling rate : 48.0 kHz Frame rate : 31.250 FPS (1536 SPF) Compression mode : Lossy Stream size : 19.3 MiB (3%) Title : Stéréo Language : Japanese Service kind : Complete Main Default : Yes Forced : No Original source medium : DVD-Video Text #1 ID : 3 ID in the original source medium : 189 (0xBD)32 (0x20) Format : VobSub Codec ID : S_VOBSUB Codec ID/Info : Picture based subtitle format used on DVDs Duration : 11 min 48 s Bit rate : 4 065 b/s Count of elements : 226 Stream size : 352 KiB (0%) Language : French Default : Yes Forced : No Original source medium : DVD-Video Text #2 ID : 4 ID in the original source medium : 189 (0xBD)33 (0x21) Format : VobSub Codec ID : S_VOBSUB Codec ID/Info : Picture based subtitle format used on DVDs Duration : 11 min 29 s Bit rate : 4 199 b/s Count of elements : 222 Stream size : 354 KiB (0%) Language : Dutch Default : No Forced : No Original source medium : DVD-Video Menu 00:00:00.000 : en:Chapitre 01 00:01:41.920 : en:Chapitre 02 00:06:30.000 : en:Chapitre 03 00:10:56.760 : en:Chapitre 04 ```

File list

thanks.. hopefully its easy to add some english subs to this too :D