[WEB] Jade Dynasty [1080P][HEVC][x265][10-bit][HFR][AAC] :: Nyaa ISS

[WEB] Jade Dynasty [1080P][HEVC][x265][10-bit][HFR][AAC]

Category:
Date:
2023-01-25 10:50 UTC
Submitter:
Seeders:
6
File size:
38.1 GiB
Completed:
15
Info hash:
78bdcc35df87b73b7df87fb548579774fd512dd3
Jade Dynasty Zhu Xian 诛仙 General Unique ID : 228504172844892690236613022130184059847 (0xABE84D8A31F93F7C57CE456E5C82FBC7) Complete name : V:\Donghua\[WEB] Jade Dynasty [1080P-HEVC,CHN-AAC-2.0,ENG-ASS]\Episode - 01.mkv Format : Matroska Format version : Version 4 / Version 2 File size : 1.22 GiB Duration : 19 min 59 s Overall bit rate : 8 745 kb/s Encoded date : UTC 2022-09-28 17:03:10 Writing application : mkvmerge v69.0.0 ('Day And Age') 64-bit Writing library : libebml v1.4.2 + libmatroska v1.6.4 Video ID : 1 Format : HEVC Format/Info : High Efficiency Video Coding Format profile : Main [email protected]@Main Codec ID : V_MPEGH/ISO/HEVC Duration : 19 min 59 s Bit rate : 8 476 kb/s Width : 1 920 pixels Height : 1 080 pixels Display aspect ratio : 16:9 Frame rate mode : Constant Frame rate : 50.000 FPS Color space : YUV Chroma subsampling : 4:2:0 Bit depth : 10 bits Bits/(Pixel*Frame) : 0.082 Stream size : 1.18 GiB (97%) Writing library : x265 3.5+39-7c7ea0a4b:[Windows][GCC 12.1.0][64 bit] 10bit Encoding settings : cpuid=1111039 / frame-threads=5 / numa-pools=32 / wpp / no-pmode / no-pme / no-psnr / no-ssim / log-level=2 / input-csp=1 / input-res=1920x1080 / interlace=0 / total-frames=0 / level-idc=0 / high-tier=1 / uhd-bd=0 / ref=3 / no-allow-non-conformance / no-repeat-headers / annexb / no-aud / no-eob / no-eos / no-hrd / info / hash=0 / no-temporal-layers / open-gop / min-keyint=25 / keyint=250 / gop-lookahead=0 / bframes=4 / b-adapt=2 / b-pyramid / bframe-bias=0 / rc-lookahead=20 / lookahead-slices=6 / scenecut=40 / no-hist-scenecut / radl=0 / no-splice / no-intra-refresh / ctu=64 / min-cu-size=8 / no-rect / no-amp / max-tu-size=32 / tu-inter-depth=1 / tu-intra-depth=1 / limit-tu=0 / rdoq-level=0 / dynamic-rd=0.00 / no-ssim-rd / signhide / no-tskip / nr-intra=0 / nr-inter=0 / no-constrained-intra / strong-intra-smoothing / max-merge=3 / limit-refs=1 / no-limit-modes / me=1 / subme=2 / merange=57 / temporal-mvp / no-frame-dup / no-hme / weightp / no-weightb / no-analyze-src-pics / deblock=0:0 / sao / no-sao-non-deblock / rd=3 / selective-sao=4 / early-skip / rskip / no-fast-intra / no-tskip-fast / no-cu-lossless / b-intra / no-splitrd-skip / rdpenalty=0 / psy-rd=2.00 / psy-rdoq=0.00 / no-rd-refine / no-lossless / cbqpoffs=0 / crqpoffs=0 / rc=crf / crf=12.0 / qcomp=0.60 / qpstep=4 / stats-write=0 / stats-read=0 / ipratio=1.40 / pbratio=1.30 / aq-mode=2 / aq-strength=1.00 / cutree / zone-count=0 / no-strict-cbr / qg-size=32 / no-rc-grain / qpmax=69 / qpmin=0 / no-const-vbv / sar=0 / overscan=0 / videoformat=5 / range=0 / colorprim=2 / transfer=2 / colormatrix=2 / chromaloc=0 / display-window=0 / cll=0,0 / min-luma=0 / max-luma=1023 / log2-max-poc-lsb=8 / vui-timing-info / vui-hrd-info / slices=1 / no-opt-qp-pps / no-opt-ref-list-length-pps / no-multi-pass-opt-rps / scenecut-bias=0.05 / hist-threshold=0.03 / no-opt-cu-delta-qp / no-aq-motion / no-hdr10 / no-hdr10-opt / no-dhdr10-opt / no-idr-recovery-sei / analysis-reuse-level=0 / analysis-save-reuse-level=0 / analysis-load-reuse-level=0 / scale-factor=0 / refine-intra=0 / refine-inter=0 / refine-mv=1 / refine-ctu-distortion=0 / no-limit-sao / ctu-info=0 / no-lowpass-dct / refine-analysis-type=0 / copy-pic=1 / max-ausize-factor=1.0 / no-dynamic-refine / no-single-sei / no-hevc-aq / no-svt / no-field / qp-adaptation-range=1.00 / scenecut-aware-qp=0conformance-window-offsets / right=0 / bottom=0 / decoder-max-rate=0 / no-vbv-live-multi-pass Default : Yes Forced : No Color range : Limited Audio ID : 2 Format : AAC LC Format/Info : Advanced Audio Codec Low Complexity Codec ID : A_AAC-2 Duration : 19 min 58 s Bit rate : 265 kb/s Channel(s) : 2 channels Channel layout : L R Sampling rate : 48.0 kHz Frame rate : 46.875 FPS (1024 SPF) Compression mode : Lossy Delay relative to video : -21 ms Stream size : 37.8 MiB (3%) Default : Yes Forced : No Text ID : 3 Format : ASS Codec ID : S_TEXT/ASS Codec ID/Info : Advanced Sub Station Alpha Duration : 19 min 30 s Bit rate : 116 b/s Count of elements : 335 Compression mode : Lossless Stream size : 16.7 KiB (0%) Default : Yes Forced : No

File list

  • Jade Dynasty
    • Episode - 01.mkv (1.2 GiB)
    • Episode - 02.mkv (1.5 GiB)
    • Episode - 03.mkv (1.7 GiB)
    • Episode - 04.mkv (1.3 GiB)
    • Episode - 05.mkv (1.1 GiB)
    • Episode - 06.mkv (1.3 GiB)
    • Episode - 07.mkv (1.5 GiB)
    • Episode - 08.mkv (1.3 GiB)
    • Episode - 09.mkv (1.1 GiB)
    • Episode - 10.mkv (1.3 GiB)
    • Episode - 11.mkv (1.4 GiB)
    • Episode - 12.mkv (1.2 GiB)
    • Episode - 13.mkv (1.1 GiB)
    • Episode - 14.mkv (1.3 GiB)
    • Episode - 15.mkv (1.2 GiB)
    • Episode - 16.mkv (1.4 GiB)
    • Episode - 17.mkv (1.6 GiB)
    • Episode - 18.mkv (1.8 GiB)
    • Episode - 19.mkv (1.6 GiB)
    • Episode - 20.mkv (1.9 GiB)
    • Episode - 21.mkv (1.6 GiB)
    • Episode - 22.mkv (1.5 GiB)
    • Episode - 23.mkv (1.5 GiB)
    • Episode - 24.mkv (1.9 GiB)
    • Episode - 25.mkv (1.8 GiB)
    • Episode - 26.mkv (2.2 GiB)