Jade Dynasty - Zhu Xian Season 1 (2160p | 4K) :: Nyaa ISS

Jade Dynasty - Zhu Xian Season 1 (2160p | 4K)

Category:
Date:
2023-01-24 20:52 UTC
Submitter:
Seeders:
8
Information:
No information.
Leechers:
3
File size:
17.5 GiB
Completed:
30
Info hash:
029a13b91f4edda98eba1aef28e986f4d28b5e7e
![alt](https://i.ytimg.com/vi/FyhoVtoVRgs/maxresdefault.jpg) - | - --- | --- **Video** | Tencent's new 4K (HDR10-like color saturation) provided by Anon **Subtitles** | Hall_of_C [Discord](https://discord.gg/2vrcsHqYVm) / [Nyaa](https://nyaa.iss.one/user/Hall_of_C) **AniList** | https://anilist.co/anime/122509/Zhu-Xian **MyAnimeList** | https://myanimelist.net/anime/49759/Zhu_Xian --- Comparison from Hall of C's release and this torrent: [[Hall_of_C] 诛仙 Zhu Xian (Jade Dynasty) - Season 1 [4K]](https://nyaa.iss.one/view/1627899) (65.7 GiB) | This torrent (17.5 GiB) --- | --- [![alt](https://i.imgur.com/OfmGjSE.jpg)](https://i.imgur.com/OfmGjSE.jpg) | [![alt](https://i.imgur.com/2kZq1zZ.jpg)](https://i.imgur.com/2kZq1zZ.jpg) --- ``` General Unique ID : 21652697550390171729159115733232819727 (0x104A286970F52F1F41D8051BEC289E0F) Complete name : D:\Definitely Not Pr0n\Jade Dynasty (Zhu Xian)\JD_-_01_[4K].mkv Format : Matroska Format version : Version 4 File size : 716 MiB Duration : 20 min 4 s Overall bit rate : 4 991 kb/s Encoded date : UTC 2023-01-23 12:59:50 Writing application : mkvmerge v69.0.0 ('Day And Age') 64-bit Writing library : libebml v1.4.2 + libmatroska v1.6.4 Attachments : Acme-Regular.ttf / ANTQUABI.TTF / Raphtalia.ttf / Roboto.ttf / times.ttf Video ID : 1 Format : HEVC Format/Info : High Efficiency Video Coding Format profile : [email protected]@Main Codec ID : V_MPEGH/ISO/HEVC Duration : 20 min 3 s Bit rate : 4 596 kb/s Width : 3 840 pixels Height : 2 160 pixels Display aspect ratio : 16:9 Frame rate mode : Constant Frame rate : 25.000 FPS Color space : YUV Chroma subsampling : 4:2:0 Bit depth : 8 bits Bits/(Pixel*Frame) : 0.022 Stream size : 660 MiB (92%) Default : Yes Forced : No Audio #1 ID : 2 Format : AAC LC Format/Info : Advanced Audio Codec Low Complexity Codec ID : A_AAC-2 Duration : 20 min 3 s Bit rate : 125 kb/s Channel(s) : 2 channels Channel layout : L R Sampling rate : 48.0 kHz Frame rate : 46.875 FPS (1024 SPF) Compression mode : Lossy Delay relative to video : -42 ms Stream size : 18.0 MiB (3%) Language : Danish Default : Yes Forced : No Audio #2 ID : 3 Format : E-AC-3 Format/Info : Enhanced AC-3 Commercial name : Dolby Digital Plus Codec ID : A_EAC3 Duration : 20 min 4 s Bit rate mode : Constant Bit rate : 256 kb/s Channel(s) : 2 channels Channel layout : L R Sampling rate : 48.0 kHz Frame rate : 31.250 FPS (1536 SPF) Compression mode : Lossy Delay relative to video : -42 ms Stream size : 36.7 MiB (5%) Language : Danish Service kind : Complete Main Default : Yes Forced : No Text ID : 4 Format : ASS Codec ID : S_TEXT/ASS Codec ID/Info : Advanced Sub Station Alpha Duration : 19 min 30 s Bit rate : 117 b/s Frame rate : 0.289 FPS Count of elements : 338 Compression mode : Lossless Stream size : 16.8 KiB (0%) Default : Yes Forced : Yes ```

File list

  • Jade Dynasty (Zhu Xian)
    • JD_-_01_[4K].mkv (716.4 MiB)
    • JD_-_02_[4K].mkv (947.8 MiB)
    • JD_-_03_[4K].mkv (947.9 MiB)
    • JD_-_04_[4K].mkv (831.2 MiB)
    • JD_-_05_[4K].mkv (744.0 MiB)
    • JD_-_06_[4K].mkv (730.7 MiB)
    • JD_-_07_[4K].mkv (935.2 MiB)
    • JD_-_08_[4K].mkv (733.7 MiB)
    • JD_-_09_[4K].mkv (589.7 MiB)
    • JD_-_10_[4K].mkv (583.4 MiB)
    • JD_-_11_[4K].mkv (657.4 MiB)
    • JD_-_12_[4K].mkv (559.3 MiB)
    • JD_-_13_[4K].mkv (581.1 MiB)
    • JD_-_14_[4K].mkv (767.1 MiB)
    • JD_-_15_[4K].mkv (553.1 MiB)
    • JD_-_16_[4K].mkv (643.8 MiB)
    • JD_-_17_[4K].mkv (728.7 MiB)
    • JD_-_18_[4K].mkv (877.8 MiB)
    • JD_-_19_[4K].mkv (592.6 MiB)
    • JD_-_20_[4K].mkv (641.6 MiB)
    • JD_-_21_[4K].mkv (566.7 MiB)
    • JD_-_22_[4K].mkv (507.2 MiB)
    • JD_-_23_[4K].mkv (465.1 MiB)
    • JD_-_24_[4K].mkv (625.1 MiB)
    • JD_-_25_[4K].mkv (614.3 MiB)
    • JD_-_26_[4K].mkv (816.1 MiB)