[MagicStar] Brush Up Life EP03 [WEBDL] [1080p] [HULU] [JPN_SUB] :: Nyaa ISS

[MagicStar] Brush Up Life EP03 [WEBDL] [1080p] [HULU] [JPN_SUB]

Category:
Date:
2023-01-24 07:09 UTC
Submitter:
Seeders:
28
Information:
Leechers:
6
File size:
1.1 GiB
Completed:
656
Info hash:
5aab12541d36a123eb731ff5fb33409b0c2c5545
HD 1080p from HULU JAPAN. ![alt text](https://i.ibb.co/LgpDBnL/8a3f182e-a973-4df9-add9-01ee22d0a9e0b.jpg) ![alt text](https://i.ibb.co/TgbBKxk/Brush-Up-Life-EP03-1080p-HULU-WEB-DL-AAC2-0-H-264-Magic-Star-mkv.jpg) ``` General Unique ID : 193206361921386755154100930818369824970 (0x915A3118F4CAA83911CC008955DAA8CA) Complete name : Brush.Up.Life.EP03.1080p.HULU.WEB-DL.AAC2.0.H.264-MagicStar.mkv Format : Matroska Format version : Version 4 File size : 1.13 GiB Duration : 45 min 22 s Overall bit rate : 3 561 kb/s Encoded date : UTC 2023-01-22 22:36:54 Writing application : mkvmerge v50.0.0 ('Awakenings') 64-bit Writing library : libebml v1.4.0 + libmatroska v1.6.2 Cover : Yes Attachments : cover.png Video ID : 1 Format : AVC Format/Info : Advanced Video Codec Format profile : [email protected] Format settings : CABAC / 4 Ref Frames Format settings, CABAC : Yes Format settings, Reference fra : 4 frames Codec ID : V_MPEG4/ISO/AVC Duration : 45 min 22 s Bit rate : 3 433 kb/s Width : 1 920 pixels Height : 1 080 pixels Display aspect ratio : 16:9 Frame rate mode : Constant Frame rate : 29.970 (29970/1000) FPS Original frame rate : 29.970 (30000/1001) FPS Color space : YUV Chroma subsampling : 4:2:0 Bit depth : 8 bits Scan type : Progressive Bits/(Pixel*Frame) : 0.055 Stream size : 1.09 GiB (96%) Default : Yes Forced : No Color range : Limited Color primaries : BT.709 Transfer characteristics : BT.709 Matrix coefficients : BT.709 Audio ID : 2 Format : AAC LC Format/Info : Advanced Audio Codec Low Complexity Codec ID : A_AAC-2 Duration : 45 min 22 s Bit rate : 125 kb/s Channel(s) : 2 channels Channel layout : L R Sampling rate : 48.0 kHz Frame rate : 46.875 FPS (1024 SPF) Compression mode : Lossy Stream size : 40.7 MiB (4%) Language : Japanese Default : Yes Forced : No ```

File list