[MagicStar] Dai Byouin Senkyo EP02 [WEBDL] [1080p] [HULU] [JPN_SUB] :: Nyaa ISS

[MagicStar] Dai Byouin Senkyo EP02 [WEBDL] [1080p] [HULU] [JPN_SUB]

Category:
Date:
2023-01-24 06:22 UTC
Submitter:
Seeders:
16
Information:
Leechers:
14
File size:
1.3 GiB
Completed:
595
Info hash:
d63ad7f31420b0255fa4e6e87e22f90eace1abce
HD 1080p from HULU JAPAN. ![alt text](https://i.ibb.co/R2qpRVT/f8951f5c-175b-4eda-9891-38e1e3959439b.jpg) ![alt text](https://i.ibb.co/R9kV511/Dai-Byouin-Senkyo-EP02-1080p-HULU-WEB-DL-AAC2-0-H-264-Magic-Star-mkv.jpg) ``` General Unique ID : 190862211510310640102702280912057990471 (0x8F96B98F1CB448DE56D68DBBEF98FD47) Complete name : Dai.Byouin.Senkyo.EP02.1080p.HULU.WEB-DL.AAC2.0.H.264-MagicStar.mkv Format : Matroska Format version : Version 4 File size : 1.29 GiB Duration : 45 min 14 s Overall bit rate : 4 084 kb/s Encoded date : UTC 2023-01-22 22:38:01 Writing application : mkvmerge v50.0.0 ('Awakenings') 64-bit Writing library : libebml v1.4.0 + libmatroska v1.6.2 Cover : Yes Attachments : cover.png Video ID : 1 Format : AVC Format/Info : Advanced Video Codec Format profile : [email protected] Format settings : CABAC / 4 Ref Frames Format settings, CABAC : Yes Format settings, Reference fra : 4 frames Codec ID : V_MPEG4/ISO/AVC Duration : 45 min 14 s Bit rate : 3 956 kb/s Width : 1 920 pixels Height : 1 080 pixels Display aspect ratio : 16:9 Frame rate mode : Constant Frame rate : 29.970 (29970/1000) FPS Original frame rate : 29.970 (30000/1001) FPS Color space : YUV Chroma subsampling : 4:2:0 Bit depth : 8 bits Scan type : Progressive Bits/(Pixel*Frame) : 0.064 Stream size : 1.25 GiB (97%) Default : Yes Forced : No Color range : Limited Color primaries : BT.709 Transfer characteristics : BT.709 Matrix coefficients : BT.709 Audio ID : 2 Format : AAC LC Format/Info : Advanced Audio Codec Low Complexity Codec ID : A_AAC-2 Duration : 45 min 14 s Bit rate : 125 kb/s Channel(s) : 2 channels Channel layout : L R Sampling rate : 48.0 kHz Frame rate : 46.875 FPS (1024 SPF) Compression mode : Lossy Stream size : 40.6 MiB (3%) Language : Japanese Default : Yes Forced : No ```

File list