Is.This.A.Zombie.S01.1080p.BluRay.10-Bit.Dual-Audio.FLAC5.1.x265-YURASUKA (Kore wa Zombie Desu ka) :: Nyaa ISS

Is.This.A.Zombie.S01.1080p.BluRay.10-Bit.Dual-Audio.FLAC5.1.x265-YURASUKA (Kore wa Zombie Desu ka)

Category:
Date:
2022-11-26 07:50 UTC
Submitter:
Seeders:
12
Information:
Leechers:
0
File size:
16.0 GiB
Completed:
187
Info hash:
1382d429dae50c7dc95bb8de83313e4b87500f2a
Is This A Zombie? / Kore wa Zombie Desu ka? Season 1 (2011) Note that only the English track is 5.1, the Japanese track is stereo. S00E01 is the OVA which is considered S01E13 in absolute order. A/V Source: Anti-Raws BD Remux (JP) 5.1 English Audio + Subtitles: [hchcsen](https://nyaa.iss.one/view/1487473) (Underwater-Commie Elysium edit) [Encode Comparison](https://slow.pics/c/HYRviCE7) ``` Complete name : Is.This.A.Zombie.S01E07.1080p.BluRay.10-Bit.Dual-Audio.FLAC5.1.x265-YURASUKA.mkv Format : Matroska Format version : Version 4 File size : 1.72 GiB Duration : 24 min 43 s Overall bit rate mode : Variable Overall bit rate : 9 955 kb/s Movie name : Is This A Zombie? - S01E07 - YURASUKA Encoded date : UTC 2022-11-26 06:24:16 Writing application : mkvmerge v71.1.0 ('Fortitude') 64-bit Writing library : libebml v1.4.4 + libmatroska v1.7.1 / Lavf59.27.100 Attachments : ALEX.ttf / arial.ttf / BAARS.TTF / Basic Comical Regular NC.ttf / BLUEHIGHWAY-REGULAR.TTF / bpreplay-bold.ttf / BrushScriptStd.otf / BurstMyBubble.ttf / cabinregular.ttf / Chubby_Cheeks_Regular.TTF / Clannad_Regular.ttf / Clannad_Round_Regular.ttf / comic.ttf / epkgobld.ttf / epmarugo.ttf / epmarugo_0.ttf / fansubBlock.ttf / GILLUBCD.TTF / GOTHIC.TTF / KozMinPro-Bold.otf / ltromatic bold.ttf / Mahagoni.ttf / MTCORSVA.TTF / onryou_Regular.TTF / Scratch_Regular.ttf / Suplexmentary_Comic_NC_Regular.ttf / Timeless-Bold.ttf / Timeless.ttf / VAG_Rounded_Std_Light_Regular.otf / YANK_H.ttf Video ID : 1 Format : HEVC Format/Info : High Efficiency Video Coding Format profile : Main [email protected]@Main Codec ID : V_MPEGH/ISO/HEVC Duration : 24 min 42 s Bit rate : 7 688 kb/s Width : 1 920 pixels Height : 1 080 pixels Display aspect ratio : 16:9 Frame rate mode : Constant Frame rate : 23.976 (24000/1001) FPS Color space : YUV Chroma subsampling : 4:2:0 Bit depth : 10 bits Bits/(Pixel*Frame) : 0.155 Stream size : 1.33 GiB (77%) Title : YURASUKA 1080p x265 Writing library : x265 3.5:[Linux][GCC 11.2.0][64 bit] 10bit Encoding settings : cpuid=1111039 / frame-threads=4 / numa-pools=24 / wpp / no-pmode / no-pme / no-psnr / no-ssim / log-level=2 / input-csp=1 / input-res=1920x1080 / interlace=0 / total-frames=0 / level-idc=0 / high-tier=1 / uhd-bd=0 / ref=6 / no-allow-non-conformance / no-repeat-headers / annexb / no-aud / no-hrd / info / hash=0 / no-temporal-layers / open-gop / min-keyint=1 / keyint=360 / gop-lookahead=0 / bframes=16 / b-adapt=2 / b-pyramid / bframe-bias=0 / rc-lookahead=72 / lookahead-slices=4 / scenecut=40 / hist-scenecut=0 / radl=0 / no-splice / no-intra-refresh / ctu=32 / min-cu-size=8 / rect / amp / max-tu-size=32 / tu-inter-depth=4 / tu-intra-depth=4 / limit-tu=0 / rdoq-level=2 / dynamic-rd=4.00 / no-ssim-rd / signhide / tskip / nr-intra=0 / nr-inter=0 / no-constrained-intra / strong-intra-smoothing / max-merge=3 / limit-refs=3 / limit-modes / me=3 / subme=4 / merange=57 / temporal-mvp / no-frame-dup / no-hme / weightp / weightb / no-analyze-src-pics / deblock=0:0 / no-sao / no-sao-non-deblock / rd=4 / selective-sao=0 / no-early-skip / rskip / no-fast-intra / no-tskip-fast / no-cu-lossless / b-intra / no-splitrd-skip / rdpenalty=0 / psy-rd=2.00 / psy-rdoq=2.00 / no-rd-refine / no-lossless / cbqpoffs=0 / crqpoffs=0 / rc=crf / crf=16.0 / qcomp=0.72 / qpstep=4 / stats-write=0 / stats-read=0 / vbv-maxrate=20000 / vbv-bufsize=20000 / vbv-init=0.9 / min-vbv-fullness=50.0 / max-vbv-fullness=80.0 / crf-max=0.0 / crf-min=0.0 / ipratio=1.40 / pbratio=1.30 / aq-mode=3 / aq-strength=0.85 / cutree / zone-count=0 / no-strict-cbr / qg-size=32 / no-rc-grain / qpmax=69 / qpmin=0 / no-const-vbv / sar=0 / overscan=0 / videoformat=5 / range=0 / colorprim=1 / transfer=1 / colormatrix=1 / chromaloc=0 / display-window=0 / cll=0,0 / min-luma=0 / max-luma=1023 / log2-max-poc-lsb=8 / vui-timing-info / vui-hrd-info / slices=1 / no-opt-qp-pps / no-opt-ref-list-length-pps / no-multi-pass-opt-rps / scenecut-bias=0.05 / hist-threshold=0.03 / no-opt-cu-delta-qp / no-aq-motion / no-hdr10 / no-hdr10-opt / no-dhdr10-opt / no-idr-recovery-sei / analysis-reuse-level=0 / analysis-save-reuse-level=0 / analysis-load-reuse-level=0 / scale-factor=0 / refine-intra=0 / refine-inter=0 / refine-mv=1 / refine-ctu-distortion=0 / no-limit-sao / ctu-info=0 / no-lowpass-dct / refine-analysis-type=0 / copy-pic=1 / max-ausize-factor=1.0 / no-dynamic-refine / no-single-sei / no-hevc-aq / no-svt / no-field / qp-adaptation-range=1.00 / scenecut-aware-qp=0conformance-window-offsets / right=0 / bottom=0 / decoder-max-rate=0 / no-vbv-live-multi-pass Language : Japanese Default : Yes Forced : No Color range : Limited Color primaries : BT.709 Transfer characteristics : BT.709 Matrix coefficients : BT.709 Audio #1 ID : 2 Format : FLAC Format/Info : Free Lossless Audio Codec Codec ID : A_FLAC Duration : 24 min 42 s Bit rate mode : Variable Bit rate : 1 417 kb/s Channel(s) : 6 channels Channel layout : L R C LFE Ls Rs Sampling rate : 48.0 kHz Frame rate : 11.719 FPS (4096 SPF) Bit depth : 16 bits Compression mode : Lossless Stream size : 250 MiB (14%) Title : English FLAC 5.1 Writing library : libFLAC 1.2.1 (UTC 2007-09-17) Language : English Default : Yes Forced : No Audio #2 ID : 3 Format : FLAC Format/Info : Free Lossless Audio Codec Codec ID : A_FLAC Duration : 24 min 43 s Bit rate mode : Variable Bit rate : 688 kb/s Channel(s) : 2 channels Channel layout : L R Sampling rate : 48.0 kHz Frame rate : 10.417 FPS (4608 SPF) Bit depth : 16 bits Compression mode : Lossless Stream size : 122 MiB (7%) Title : Japanese FLAC 2.0 Writing library : Lavf59.27.100 Language : Japanese Default : No Forced : No Text #1 ID : 4 Format : ASS Codec ID : S_TEXT/ASS Codec ID/Info : Advanced Sub Station Alpha Duration : 24 min 4 s Bit rate : 70 b/s Frame rate : 0.080 FPS Count of elements : 116 Compression mode : Lossless Stream size : 12.5 KiB (0%) Title : Songs [Elysium] Language : English Default : Yes Forced : Yes Text #2 ID : 5 Format : ASS Codec ID : S_TEXT/ASS Codec ID/Info : Advanced Sub Station Alpha Duration : 24 min 26 s Bit rate : 163 b/s Frame rate : 0.304 FPS Count of elements : 446 Compression mode : Lossless Stream size : 29.3 KiB (0%) Title : Full Subtitles [Underwater-Commie Elysium edit] Language : English Default : No Forced : No Menu 00:00:00.000 : en:Chapter 01 00:00:25.025 : en:Chapter 02 00:01:55.032 : en:Chapter 03 00:11:45.079 : en:Chapter 04 00:22:56.083 : en:Chapter 05 00:24:26.048 : en:Chapter 06 ``` Dead end for a sucker that’s a sucker like me. 私のような吸盤の行き止まりです。

File list

  • Is.This.A.Zombie.S01.1080p.BluRay.10-Bit.Dual-Audio.FLAC5.1.x265-YURASUKA
    • Is.This.A.Zombie.S00E01.1080p.BluRay.10-Bit.Dual-Audio.FLAC5.1.x265-YURASUKA.mkv (1.1 GiB)
    • Is.This.A.Zombie.S01E01.1080p.BluRay.10-Bit.Dual-Audio.FLAC5.1.x265-YURASUKA.mkv (1.1 GiB)
    • Is.This.A.Zombie.S01E02.1080p.BluRay.10-Bit.Dual-Audio.FLAC5.1.x265-YURASUKA.mkv (1012.5 MiB)
    • Is.This.A.Zombie.S01E03.1080p.BluRay.10-Bit.Dual-Audio.FLAC5.1.x265-YURASUKA.mkv (1.7 GiB)
    • Is.This.A.Zombie.S01E04.1080p.BluRay.10-Bit.Dual-Audio.FLAC5.1.x265-YURASUKA.mkv (1.2 GiB)
    • Is.This.A.Zombie.S01E05.1080p.BluRay.10-Bit.Dual-Audio.FLAC5.1.x265-YURASUKA.mkv (1.0 GiB)
    • Is.This.A.Zombie.S01E06.1080p.BluRay.10-Bit.Dual-Audio.FLAC5.1.x265-YURASUKA.mkv (1.1 GiB)
    • Is.This.A.Zombie.S01E07.1080p.BluRay.10-Bit.Dual-Audio.FLAC5.1.x265-YURASUKA.mkv (1.7 GiB)
    • Is.This.A.Zombie.S01E08.1080p.BluRay.10-Bit.Dual-Audio.FLAC5.1.x265-YURASUKA.mkv (1.0 GiB)
    • Is.This.A.Zombie.S01E09.1080p.BluRay.10-Bit.Dual-Audio.FLAC5.1.x265-YURASUKA.mkv (1.1 GiB)
    • Is.This.A.Zombie.S01E10.1080p.BluRay.10-Bit.Dual-Audio.FLAC5.1.x265-YURASUKA.mkv (946.6 MiB)
    • Is.This.A.Zombie.S01E11.1080p.BluRay.10-Bit.Dual-Audio.FLAC5.1.x265-YURASUKA.mkv (1.4 GiB)
    • Is.This.A.Zombie.S01E12.1080p.BluRay.10-Bit.Dual-Audio.FLAC5.1.x265-YURASUKA.mkv (1.7 GiB)
The dub has tranny jokes in it, so it's worth a listen.