[IrizaRaws] Gekijouban Karakai Jouzu no Takagi-san (BDRip 1920x1080 x264 10bit DTS FLAC) :: Nyaa ISS

[IrizaRaws] Gekijouban Karakai Jouzu no Takagi-san (BDRip 1920x1080 x264 10bit DTS FLAC)

Category:
Date:
2022-11-24 19:49 UTC
Submitter:
Seeders:
9
Information:
No information.
Leechers:
5
File size:
14.5 GiB
Completed:
107
Info hash:
20db2363ee34d3d38e18896818068b88b27d0e4b
Hello! My rips are made from Japanese BDMV, unless stated otherwise. In terms of video quality, my raws should be comparable to ReinForce (since I started from their settings, and then modified it). I don’t use AA, blur, denoise and other such “enhancements”. Basically, the idea of my encodes will be: as similar to BDMV as possible, while reducing size 3-4 times. Also I will rip Audio Commentaries, interview’s and such things (everything, that’s on BD). Again, If you found any Bugs, mistakes, problems etc. Please comment! If needed I will reencode. About this Anime: https://myanimelist.net/anime/49722 https://anidb.net/anime/16560 SEED PLEASE! Acknowledgments for BDMV: kirari1185(KoushinRip) Acknowledgments for Soundtrack: 無損音樂及Hi-res聲明 Hi-res Theme Song & Insert Song 由天使動漫wanghy777自購 https://www.tsdm39.net/forum.php?mod=viewthread&tid=1104944 Hi-res Music Collection 由天使動漫wanghy777自購 https://www.tsdm39.net/forum.php?mod=viewthread&tid=1105630 Hi-res Cover Song 由天使動漫ychx自購 https://www.tsdm39.net/forum.php?mod=viewthread&tid=1111000 動漫音樂微博,最新自購無損音樂更新情況 https://weibo.com/dmmusic 天使動漫TSDM自購,天使動漫音樂區原貼鏈接 https://www.tsdm39.net/forum.php?mod=forumdisplay&fid=247 MediaInfo: General Unique ID : 62062446422412223029343733629744765901 (0x2EB0CADAA3E667528F4884DE31FEDBCD) Complete name : D:\work\Rip\Gekijouban Karakai Jouzu no Takagi-san\[IrizaRaws] Gekijouban Karakai Jouzu no Takagi-san (BDRip 1920x1080 x264 10bit DTS FLAC)\[IrizaRaws] Gekijouban Karakai Jouzu no Takagi-san (BDRip 1920x1080 x264 10bit DTS FLAC).mkv Format : Matroska Format version : Version 4 / Version 2 File size : 3.46 GiB Duration : 1 h 12 min Overall bit rate mode : Variable Overall bit rate : 6 824 kb/s Encoded date : UTC 2022-11-22 20:12:59 Writing application : mkvmerge v70.0.0 ('Caught A Lite Sneeze') 64-bit Writing library : libebml v1.4.2 + libmatroska v1.6.4 Video ID : 1 Format : AVC Format/Info : Advanced Video Codec Format profile : High [email protected] Format settings : CABAC / 8 Ref Frames Format settings, CABAC : Yes Format settings, RefFrames : 8 frames Codec ID : V_MPEG4/ISO/AVC Duration : 1 h 12 min Bit rate : 4 089 kb/s Width : 1 920 pixels Height : 1 080 pixels Display aspect ratio : 16:9 Frame rate mode : Constant Frame rate : 23.976 (24000/1001) FPS Color space : YUV Chroma subsampling : 4:2:0 Bit depth : 10 bits Scan type : Progressive Bits/(Pixel*Frame) : 0.082 Stream size : 2.07 GiB (60%) Writing library : x264 core 164 r3100 ed0f7a6 Encoding settings : cabac=1 / ref=8 / deblock=1:-2:-2 / analyse=0x3:0x113 / me=umh / subme=9 / psy=1 / psy_rd=0.70:0.00 / mixed_ref=0 / me_range=32 / chroma_me=1 / trellis=2 / 8x8dct=1 / cqm=0 / deadzone=21,11 / fast_pskip=0 / chroma_qp_offset=-2 / threads=22 / lookahead_threads=3 / sliced_threads=0 / nr=0 / decimate=1 / interlaced=0 / bluray_compat=0 / constrained_intra=0 / bframes=9 / b_pyramid=2 / b_adapt=2 / b_bias=0 / direct=0 / weightb=1 / open_gop=0 / weightp=2 / keyint=250 / keyint_min=23 / scenecut=40 / intra_refresh=0 / rc=crf / mbtree=0 / crf=17.5 / qcomp=1.00 / qpmin=0 / qpmax=40 / qpstep=4 / ip_ratio=1.40 / pb_ratio=1.30 / aq=1:1.00 Language : English Default : Yes Forced : No Audio #1 ID : 2 Format : DTS Format/Info : Digital Theater Systems Format profile : MA / Core Mode : 16 Format settings, Endianness : Big Codec ID : A_DTS Duration : 1 h 12 min Bit rate mode : Variable / Constant Bit rate : 2 048 kb/s / 1 509 kb/s Channel(s) : 6 channels Channel positions : Front: L C R, Side: L R, LFE Sampling rate : 48.0 kHz Frame rate : 93.750 FPS (512 SPF) Bit depth : 16 bits Compression mode : Lossless / Lossy Stream size : 1.06 GiB (31%) Title : Main DTS 5.1 Language : Japanese Default : Yes Forced : No Audio #2 ID : 3 Format : FLAC Format/Info : Free Lossless Audio Codec Codec ID : A_FLAC Duration : 1 h 12 min Bit rate mode : Variable Bit rate : 629 kb/s Channel(s) : 2 channels Channel positions : Front: L R Sampling rate : 48.0 kHz Frame rate : 11.719 FPS (4096 SPF) Bit depth : 16 bits Stream size : 326 MiB (9%) Title : Main FLAC 2.0 Writing library : libFLAC 1.4.1 (UTC 2022-09-22) Language : Japanese Default : Yes Forced : No Text ID : 4 Format : PGS Muxing mode : zlib Codec ID : S_HDMV/PGS Codec ID/Info : Picture based subtitle format used on BDs/HD-DVDs Duration : 1 h 12 min Bit rate : 38.2 kb/s Count of elements : 2098 Stream size : 19.7 MiB (1%) Language : Japanese Default : Yes Forced : No Menu 00:00:00.000 : en:Chapter 01 00:03:50.438 : en:Chapter 02 00:05:50.558 : en:Chapter 03 00:11:39.824 : en:Chapter 04 00:17:04.189 : en:Chapter 05 00:23:01.505 : en:Chapter 06 00:30:20.235 : en:Chapter 07 00:38:04.615 : en:Chapter 08 00:50:08.046 : en:Chapter 09 00:58:01.561 : en:Chapter 10 01:03:57.333 : en:Chapter 11 01:10:19.965 : en:Chapter 12

File list

  • [IrizaRaws] Gekijouban Karakai Jouzu no Takagi-san (BDRip 1920x1080 x264 10bit DTS FLAC)
    • Bonus
      • Menu
        • [IrizaRaws] Gekijouban Karakai Jouzu no Takagi-san Menu - 01 (BDRip 1920x1080 x264 10bit FLAC).mkv (78.4 MiB)
        • [IrizaRaws] Gekijouban Karakai Jouzu no Takagi-san Menu - 02 (BDRip 1920x1080 x264 10bit FLAC).mkv (79.8 MiB)
        • [IrizaRaws] Gekijouban Karakai Jouzu no Takagi-san SPBD Menu (BDRip 1920x1080 x264 10bit FLAC).mkv (141.2 MiB)
      • NC
        • [IrizaRaws] Gekijouban Karakai Jouzu no Takagi-san Weekly NCED - 01 (BDRip 1920x1080 x264 10bit DTS FLAC).mkv (519.3 MiB)
        • [IrizaRaws] Gekijouban Karakai Jouzu no Takagi-san Weekly NCED - 02 (BDRip 1920x1080 x264 10bit DTS FLAC).mkv (155.0 MiB)
        • [IrizaRaws] Gekijouban Karakai Jouzu no Takagi-san Weekly NCED - 03 (BDRip 1920x1080 x264 10bit DTS FLAC).mkv (306.1 MiB)
        • [IrizaRaws] Gekijouban Karakai Jouzu no Takagi-san Weekly NCED - 04 (BDRip 1920x1080 x264 10bit DTS FLAC).mkv (168.2 MiB)
      • PV
        • [IrizaRaws] Gekijouban Karakai Jouzu no Takagi-san CM - 01 (BDRip 1920x1080 x264 10bit FLAC).mkv (11.9 MiB)
        • [IrizaRaws] Gekijouban Karakai Jouzu no Takagi-san CM - 02 (BDRip 1920x1080 x264 10bit FLAC).mkv (28.9 MiB)
        • [IrizaRaws] Gekijouban Karakai Jouzu no Takagi-san CM - 03 (BDRip 1920x1080 x264 10bit FLAC).mkv (31.1 MiB)
        • [IrizaRaws] Gekijouban Karakai Jouzu no Takagi-san CM - 04 (BDRip 1920x1080 x264 10bit FLAC).mkv (12.9 MiB)
        • [IrizaRaws] Gekijouban Karakai Jouzu no Takagi-san PV - 01 (BDRip 1920x1080 x264 10bit FLAC).mkv (34.0 MiB)
        • [IrizaRaws] Gekijouban Karakai Jouzu no Takagi-san PV - 02 (BDRip 1920x1080 x264 10bit FLAC).mkv (46.4 MiB)
      • RL
        • [IrizaRaws] Gekijouban Karakai Jouzu no Takagi-san SPBD RL - 01 (BDRip 1920x1080 x264 10bit FLAC).mkv (2.5 GiB)
        • [IrizaRaws] Gekijouban Karakai Jouzu no Takagi-san SPBD RL - 02 (BDRip 1920x1080 x264 10bit FLAC).mkv (872.5 MiB)
        • [IrizaRaws] Gekijouban Karakai Jouzu no Takagi-san SPBD RL - 03 (BDRip 1920x1080 x264 10bit FLAC).mkv (1.3 GiB)
        • [IrizaRaws] Gekijouban Karakai Jouzu no Takagi-san SPBD RL - 04 (BDRip 1920x1080 x264 10bit FLAC).mkv (1.5 GiB)
      • [IrizaRaws] Gekijouban Karakai Jouzu no Takagi-san Logo (BDRip 1920x1080 x264 10bit).mkv (491.1 KiB)
      • [IrizaRaws] Gekijouban Karakai Jouzu no Takagi-san SPBD Logo (BDRip 1920x1080 x264 10bit FLAC).mkv (6.1 MiB)
    • Soundtrack
      • CDs
        • [EAC] [220610] Music Collection (flac(24bits))
          • 01. 雨のち晴れ.flac (58.8 MiB)
          • 02. チョキ作戦.flac (39.7 MiB)
          • 03. からかい貯金.flac (18.5 MiB)
          • 04. いつもと違う高木さん.flac (21.0 MiB)
          • 05. ミナとユカリとサナエの同じような日々.flac (21.3 MiB)
          • 06. 誘う勇気と誘われる喜び.flac (46.2 MiB)
          • 07. 虫送り.flac (106.9 MiB)
          • 08. 小さなバス停.flac (14.5 MiB)
          • 09. 会う理由.flac (31.4 MiB)
          • 10. ハナとの出会い.flac (19.4 MiB)
          • 11. 思い入れのはじまり.flac (24.8 MiB)
          • 12. ミナとユカリとサナエのやりたいこと100.flac (25.2 MiB)
          • 13. 名前決め対決.flac (25.7 MiB)
          • 14. ハナと高木さんと西片.flac (28.1 MiB)
          • 15. ハナと勝負.flac (25.4 MiB)
          • 16. 終わりたくない.flac (25.7 MiB)
          • 17. ハナとの別れ.flac (26.6 MiB)
          • 18. 西片から高木さんへ.flac (31.7 MiB)
          • 19. 高木さんから西片へ.flac (45.6 MiB)
          • 20. からかい上手の高木さん.flac (54.7 MiB)
          • 21. 家族揃って.flac (35.2 MiB)
          • cover.jpg (734.2 KiB)
          • 天使動漫@1693864自購.txt (71 Bytes)
        • [EAC] [220713] Cover Song Collection (flac(24bits))
          • 01. 夢で逢えたら.flac (120.4 MiB)
          • 02. Over Drive.flac (144.6 MiB)
          • 03. ひまわりの約束.flac (172.7 MiB)
          • 04. 学園天国.flac (88.3 MiB)
          • 05. じょいふる.flac (110.3 MiB)
          • 06. サンタが町にやってくる.flac (94.5 MiB)
          • 07. スノーマジックファンタジー.flac (174.1 MiB)
          • 08. 花.flac (141.4 MiB)
          • 09. 明日への扉.flac (190.7 MiB)
          • 10. 天体観測.flac (147.6 MiB)
          • 11. fragile.flac (162.2 MiB)
          • 12. 君に届け.flac (179.9 MiB)
          • cover.jpg (1.3 MiB)
          • 天使動漫@1637496自購.txt (71 Bytes)
        • [EAC] [220713] Island Memories [Theme Song&Insert Song 収録] (flac(24bits))
          • 01. まっすぐ.flac (150.5 MiB)
          • 02. まっすぐ~ラララver.~.flac (53.3 MiB)
          • 03. サンタになりたい.flac (175.0 MiB)
          • 04. 風見鶏を見つけて.flac (170.8 MiB)
          • 05. はじまりの夏.flac (144.3 MiB)
          • 06. ハマボウの花.flac (165.2 MiB)
          • cover1.jpg (1.4 MiB)
          • cover2.jpg (196.9 KiB)
          • 天使動漫@1693864自購.txt (71 Bytes)
    • [IrizaRaws] Gekijouban Karakai Jouzu no Takagi-san (BDRip 1920x1080 x264 10bit DTS FLAC).mkv (3.5 GiB)
Thank you for your commitment and quality work. Is there a reason, when there’s several tracks (for audio or subtitles), that all of them to be set as default - instead of just one?

lorelei99 (uploader)

User
@golgoth-13 By default MeGUI labels all audio tracks as "Default". Since I never utilised "Default" and "Forced" tags, I never saw the reason to change it.
@lorelei99 Mhhh... I see. Thank you for this insight in your process. It is because of some normal ("default", sigh) behavior of the software. Now I understand why it can be the same with some other encoders. Regards.