[MagicStar] Ultraman Decker EP09 [WEBDL] [1080p] [AMZN] :: Nyaa ISS

[MagicStar] Ultraman Decker EP09 [WEBDL] [1080p] [AMZN]

Category:
Date:
2022-09-17 01:28 UTC
Submitter:
Seeders:
2
Information:
Leechers:
0
File size:
1.6 GiB
Completed:
122
Info hash:
6867c13aa4814cd727cb1fc025d942d9b9ed9b46
HD 1080p from Prime Video. Use CBR bitrate mode. ************** We are planning to upload all prime video japan Dramas and Movies, we need your Support! ************** Support Us Ali (Zhifubao / QR code): https://i.ibb.co/FWV2ggm/1660626347125.png PayPalMe: https://www.paypal.com/paypalme/sakuragikenji ************** ![alt text](https://i.ibb.co/XsjZrJ4/e19b31d6-8e30-44b4-a090-6ae2fc8ef640b.jpg) ![alt text](https://i.ibb.co/SnQwZn9/Ultraman-Decker-EP09-1080p-AMZN-WEB-DL-DDP2-0-H-264-Magic-Star-mkv.jpg) ``` General Unique ID : 125610264365121039754024167808448333780 (0x5E7FA82DA24890C8842C1824357807D4) Complete name : Ultraman.Decker.EP09.1080p.AMZN.WEB-DL.DDP2.0.H.264-MagicStar.mkv Format : Matroska Format version : Version 4 File size : 1.56 GiB Duration : 24 min 35 s Overall bit rate mode : Constant Overall bit rate : 9 070 kb/s Encoded date : UTC 2022-09-16 23:55:51 Writing application : mkvmerge v50.0.0 ('Awakenings') 64-bit Writing library : libebml v1.4.0 + libmatroska v1.6.2 Cover : Yes Attachments : cover.png Video ID : 1 Format : AVC Format/Info : Advanced Video Codec Format profile : [email protected] Format settings : CABAC / 4 Ref Frames Format settings, CABAC : Yes Format settings, Reference fra : 4 frames Codec ID : V_MPEG4/ISO/AVC Duration : 24 min 34 s Bit rate mode : Constant Bit rate : 8 831 kb/s Nominal bit rate : 10 000 kb/s Width : 1 920 pixels Height : 1 080 pixels Display aspect ratio : 16:9 Frame rate mode : Constant Frame rate : 23.976 (24000/1001) FPS Color space : YUV Chroma subsampling : 4:2:0 Bit depth : 8 bits Scan type : Progressive Bits/(Pixel*Frame) : 0.178 Stream size : 1.52 GiB (97%) Default : Yes Forced : No Color range : Limited Color primaries : BT.709 Transfer characteristics : BT.709 Matrix coefficients : BT.709 Audio ID : 2 Format : E-AC-3 Format/Info : Enhanced AC-3 Commercial name : Dolby Digital Plus Codec ID : A_EAC3 Duration : 24 min 35 s Bit rate mode : Constant Bit rate : 224 kb/s Channel(s) : 2 channels Channel layout : L R Sampling rate : 48.0 kHz Frame rate : 31.250 FPS (1536 SPF) Compression mode : Lossy Stream size : 39.4 MiB (2%) Language : Japanese Service kind : Complete Main Default : Yes Forced : No ```

File list