Porco Rosso [1992] 1080p BDRip x265 DTS-HD MA 2.0 Kira [SEV] :: Nyaa ISS

Porco Rosso [1992] 1080p BDRip x265 DTS-HD MA 2.0 Kira [SEV]

Category:
Date:
2021-12-06 08:32 UTC
Submitter:
Seeders:
6
Information:
No information.
Leechers:
0
File size:
12.2 GiB
Completed:
87
Info hash:
deb203da1eff7e0459fddeb5deb75f13ab33d497
![alt text](https://thumbs2.imgbox.com/04/42/A7v1UjnJ_t.png "SEV") #Screenshot's Thumbs ![alt text](https://thumbs2.imgbox.com/37/9b/s3HaUH8q_t.png) ![alt text](https://thumbs2.imgbox.com/d5/7c/92b5lEIw_t.png) ![alt text](https://thumbs2.imgbox.com/25/f4/5b2IyaM6_t.png) ![alt text](https://thumbs2.imgbox.com/1a/49/6LfYHJlx_t.png) ![alt text](https://thumbs2.imgbox.com/18/d6/UQB3KsUB_t.png) ![alt text](https://thumbs2.imgbox.com/8c/46/BE6uGMfi_t.png) ![alt text](https://thumbs2.imgbox.com/a4/9e/XW5NBkhC_t.png) ![alt text](https://thumbs2.imgbox.com/b2/b6/WgB993aG_t.png) ![alt text](https://thumbs2.imgbox.com/ee/66/kRa6nPvr_t.png) ![alt text](https://thumbs2.imgbox.com/0e/01/egnJfzfY_t.png) Source vs Encode https://imgbox.com/sAvCr7l0 ------------- https://imgbox.com/s3HaUH8q https://imgbox.com/O9q23M93 ------------- https://imgbox.com/92b5lEIw https://imgbox.com/zQN8PqgK ------------- https://imgbox.com/5b2IyaM6 https://imgbox.com/W89ehjz2 ------------- https://imgbox.com/6LfYHJlx https://imgbox.com/dz6LNEcJ ------------- https://imgbox.com/UQB3KsUB https://imgbox.com/F6zbveyg ------------- https://imgbox.com/BE6uGMfi https://imgbox.com/4rE9zJlS ------------- https://imgbox.com/XW5NBkhC https://imgbox.com/GfeUYLZl ------------- https://imgbox.com/WgB993aG https://imgbox.com/lBXSt6XD ------------- https://imgbox.com/kRa6nPvr https://imgbox.com/oKNTKIQt ------------- https://imgbox.com/egnJfzfY Media Information ``` General Unique ID : 173339349477660497764482975334951932121 (0x8267F1C23ADA8C5BB61527557A25D0D9) Complete name : Porco Rosso [1992] 1080p BDRip x265 DTS-HD MA 2.0 Kira [SEV].mkv Format : Matroska Format version : Version 4 File size : 12.2 GiB Duration : 1 h 33 min Overall bit rate mode : Variable Overall bit rate : 18.7 Mb/s Movie name : | 紅の豚 (Kurenai no Buta) [1992] | Porco Rosso [1992] | 1080p | BDRip | x265 | DTS:HD MA 2.0 @ 2164 Kbps | Kira [SEV] | Encoded date : UTC 2021-11-08 05:56:08 Writing application : mkvmerge v62.0.0 ('Apollo') 64-bit Writing library : libebml v1.4.2 + libmatroska v1.6.4 Attachments : PPETRIAL.otf / DFGKyks4-Arrietty.ttf / DFPGothUW5-Arrietty.ttf / FOT-MatisseMinoriProB-En.otf / LTe53507.ttf / Memo-Condensed_Italic.ttf / Memo-Condensed_Normal.ttf / ARIALN.TTF Video ID : 1 Format : HEVC Format/Info : High Efficiency Video Coding Format profile : Main [email protected]@Main Codec ID : V_MPEGH/ISO/HEVC Duration : 1 h 33 min Bit rate : 16.3 Mb/s Width : 1 920 pixels Height : 1 080 pixels Display aspect ratio : 16:9 Frame rate mode : Constant Frame rate : 23.976 (24000/1001) FPS Color space : YUV Chroma subsampling : 4:2:0 Bit depth : 10 bits Bits/(Pixel*Frame) : 0.327 Stream size : 10.6 GiB (87%) Title : | 紅の豚 (Kurenai no Buta) [1992] | Porco Rosso [1992] | 1080p | BDRip | x265 | DTS:HD MA 2.0 @ 2164 Kbps | Kira [SEV] | Writing library : x265 3.5+16-7955046e7:[Windows][MSVC 1929][64 bit] 10bit Encoding settings : cpuid=1111039 / frame-threads=3 / numa-pools=12 / wpp / no-pmode / no-pme / no-psnr / no-ssim / log-level=2 / input-csp=1 / input-res=1920x1080 / interlace=0 / total-frames=134263 / level-idc=0 / high-tier=1 / uhd-bd=0 / ref=5 / no-allow-non-conformance / no-repeat-headers / annexb / no-aud / no-eob / no-eos / no-hrd / info / hash=0 / no-temporal-layers / open-gop / min-keyint=23 / keyint=250 / gop-lookahead=0 / bframes=16 / b-adapt=2 / b-pyramid / bframe-bias=0 / rc-lookahead=100 / lookahead-slices=0 / scenecut=40 / no-hist-scenecut / radl=0 / no-splice / no-intra-refresh / ctu=64 / min-cu-size=8 / no-rect / no-amp / max-tu-size=32 / tu-inter-depth=4 / tu-intra-depth=4 / limit-tu=4 / rdoq-level=2 / dynamic-rd=0.00 / no-ssim-rd / signhide / no-tskip / nr-intra=0 / nr-inter=0 / no-constrained-intra / no-strong-intra-smoothing / max-merge=4 / limit-refs=1 / limit-modes / me=3 / subme=7 / merange=92 / temporal-mvp / no-frame-dup / no-hme / weightp / weightb / no-analyze-src-pics / deblock=0:0 / no-sao / no-sao-non-deblock / rd=6 / selective-sao=0 / no-early-skip / rskip / no-fast-intra / no-tskip-fast / no-cu-lossless / b-intra / no-splitrd-skip / rdpenalty=0 / psy-rd=1.50 / psy-rdoq=1.00 / no-rd-refine / no-lossless / cbqpoffs=0 / crqpoffs=0 / rc=crf / crf=15.0 / qcomp=0.60 / qpstep=4 / stats-write=0 / stats-read=0 / ipratio=1.40 / pbratio=1.30 / aq-mode=4 / aq-strength=1.40 / cutree / zone-count=0 / no-strict-cbr / qg-size=32 / no-rc-grain / qpmax=69 / qpmin=0 / no-const-vbv / sar=0 / overscan=0 / videoformat=5 / range=0 / colorprim=2 / transfer=2 / colormatrix=2 / chromaloc=0 / display-window=0 / cll=0,0 / min-luma=0 / max-luma=1023 / log2-max-poc-lsb=8 / vui-timing-info / vui-hrd-info / slices=1 / no-opt-qp-pps / no-opt-ref-list-length-pps / no-multi-pass-opt-rps / scenecut-bias=0.05 / hist-threshold=0.03 / no-opt-cu-delta-qp / no-aq-motion / no-hdr10 / no-hdr10-opt / no-dhdr10-opt / no-idr-recovery-sei / analysis-reuse-level=0 / analysis-save-reuse-level=0 / analysis-load-reuse-level=0 / scale-factor=0 / refine-intra=0 / refine-inter=0 / refine-mv=1 / refine-ctu-distortion=0 / no-limit-sao / ctu-info=0 / no-lowpass-dct / refine-analysis-type=0 / copy-pic=1 / max-ausize-factor=1.0 / no-dynamic-refine / no-single-sei / no-hevc-aq / no-svt / no-field / qp-adaptation-range=1.00 / scenecut-aware-qp=0conformance-window-offsets / right=0 / bottom=0 / decoder-max-rate=0 / no-vbv-live-multi-pass Language : Japanese Default : Yes Forced : No Audio #1 ID : 2 Format : DTS XLL Format/Info : Digital Theater Systems Commercial name : DTS-HD Master Audio Codec ID : A_DTS Duration : 1 h 33 min Bit rate mode : Variable Bit rate : 2 164 kb/s Channel(s) : 2 channels Sampling rate : 48.0 kHz Frame rate : 93.750 FPS (512 SPF) Bit depth : 24 bits Compression mode : Lossless Delay relative to video : 11 ms Stream size : 1.41 GiB (12%) Title : Japanese BD DTS:HD MA 2.0 @ 2164 Kbps Language : Japanese Default : Yes Forced : No Audio #2 ID : 3 Format : AC-3 Format/Info : Audio Coding 3 Commercial name : Dolby Digital Format settings : Dolby Surround Codec ID : A_AC3 Duration : 1 h 33 min Bit rate mode : Constant Bit rate : 192 kb/s Channel(s) : 2 channels Channel layout : L R Sampling rate : 48.0 kHz Frame rate : 31.250 FPS (1536 SPF) Compression mode : Lossy Delay relative to video : 32 ms Stream size : 128 MiB (1%) Title : English BD AC-3 DD 2.0 Language : English Service kind : Complete Main Default : No Forced : No Text #1 ID : 4 Format : PGS Codec ID : S_HDMV/PGS Codec ID/Info : Picture based subtitle format used on BDs/HD-DVDs Duration : 1 h 31 min Bit rate : 32.5 kb/s Count of elements : 2784 Stream size : 21.3 MiB (0%) Title : Japanese BD PGS Sub Language : Japanese Default : Yes Forced : No Text #2 ID : 5 Format : ASS Codec ID : S_TEXT/ASS Codec ID/Info : Advanced Sub Station Alpha Duration : 1 h 31 min Bit rate : 111 b/s Count of elements : 1218 Compression mode : Lossless Stream size : 74.3 KiB (0%) Title : (Use this) [niizk] - [REVO] English ASS Language : English Default : No Forced : No Text #3 ID : 6 Format : PGS Codec ID : S_HDMV/PGS Codec ID/Info : Picture based subtitle format used on BDs/HD-DVDs Duration : 1 h 33 min Bit rate : 30.6 kb/s Count of elements : 1814 Stream size : 20.3 MiB (0%) Title : English BD PGS Sub Language : English Default : No Forced : No Menu 00:00:00.000 : ja:Chapter 01 ... 01:29:23.691 : ja:Chapter 19 ``` Source Information ``` Porco Rosso 1992 REMUX (27.2 GB) ``` We have no issue with individuals posting or re-uploading our torrents on a platform we aren't on. However, if this is something you'd like to do, please do so in a 'as-is' format. We ask that you do not create a new torrent, include all descriptions you see above including the SEV logo, tags, notes and screenshots. If you'd like to become a permanent poster on a website we don't post to, feel free to get in contact with a Sublime Encoded Video member. We are recruiting/training new members for SEV & seedbox providers as well as people to help out with subtitles. As you already know, we deliver quality, so you know the standard. If you're interested, feel free to contact any of the team members.

File list

Ever since you did Monster I trust your uploads. Thanks @Kira_SEV

Kira_SEV (uploader)

User
@andysmith89 You're welcome. Thanks for the support. Enjoy!