The Secret World Of Arrietty [2010] 1080p BDRip x265 DTS-HD MA 5.1 Kira [SEV] :: Nyaa ISS

The Secret World Of Arrietty [2010] 1080p BDRip x265 DTS-HD MA 5.1 Kira [SEV]

Category:
Date:
2021-12-06 08:30 UTC
Submitter:
Seeders:
2
Information:
No information.
Leechers:
2
File size:
14.1 GiB
Completed:
82
Info hash:
722c8bb47527cf8f9e11017dd8014dc1d376faad
![alt text](https://thumbs2.imgbox.com/04/42/A7v1UjnJ_t.png "SEV") #Screenshot's Thumbs ![alt text](https://thumbs2.imgbox.com/0d/69/zgVyXwT4_t.png) ![alt text](https://thumbs2.imgbox.com/f6/ce/3R6uBAMB_t.png) ![alt text](https://thumbs2.imgbox.com/aa/83/qjhv0CXX_t.png) ![alt text](https://thumbs2.imgbox.com/43/88/RascEMrQ_t.png) ![alt text](https://thumbs2.imgbox.com/3e/f6/PIERCCmD_t.png) ![alt text](https://thumbs2.imgbox.com/2b/db/fcyT0fWu_t.png) ![alt text](https://thumbs2.imgbox.com/5f/be/kVgNadWu_t.png) ![alt text](https://thumbs2.imgbox.com/93/60/ALDTvhwm_t.png) ![alt text](https://thumbs2.imgbox.com/1f/53/UxzCLxT7_t.png) ![alt text](https://thumbs2.imgbox.com/9d/4b/RZ3fobX5_t.png) Source vs Encode https://imgbox.com/DI8u57d0 ------------- https://imgbox.com/zgVyXwT4 https://imgbox.com/jOMxHRqX ------------- https://imgbox.com/3R6uBAMB https://imgbox.com/SwM0GHwr ------------- https://imgbox.com/qjhv0CXX https://imgbox.com/2zGqwd1U ------------- https://imgbox.com/RascEMrQ https://imgbox.com/ZC6JBKW9 ------------- https://imgbox.com/PIERCCmD https://imgbox.com/OgsBdeMV ------------- https://imgbox.com/fcyT0fWu https://imgbox.com/vRxyCIfO ------------- https://imgbox.com/kVgNadWu https://imgbox.com/8PN3akfM ------------- https://imgbox.com/ALDTvhwm https://imgbox.com/lckhCB3e ------------- https://imgbox.com/UxzCLxT7 https://imgbox.com/e8XOwBwv ------------- https://imgbox.com/RZ3fobX5 Media Information ``` General Unique ID : 328130029466167043435024809023298238117 (0xF6DB8B8132B3135631D2E02E47B676A5) Complete name : The Secret World Of Arrietty [2010] 1080p BDRip x265 DTS-HD MA 5.1 Kira [SEV].mkv Format : Matroska Format version : Version 4 File size : 14.1 GiB Duration : 1 h 35 min Overall bit rate mode : Variable Overall bit rate : 21.2 Mb/s Movie name : | 借りぐらしのアリエッティ (Kari-gurashi no Arietti) [2010] | The Secret World Of Arrietty [2010] | 1080p | BDRip | x265 | DTS:HD MA 5.1 @ 4466 Kbps | Kira [SEV] | Encoded date : UTC 2021-11-30 02:15:59 Writing application : mkvmerge v61.0.0 ('So') 64-bit Writing library : libebml v1.4.2 + libmatroska v1.6.4 Video ID : 1 Format : HEVC Format/Info : High Efficiency Video Coding Format profile : Main [email protected]@Main Codec ID : V_MPEGH/ISO/HEVC Duration : 1 h 35 min Bit rate : 12.9 Mb/s Width : 1 920 pixels Height : 1 080 pixels Display aspect ratio : 16:9 Frame rate mode : Constant Frame rate : 23.976 (24000/1001) FPS Color space : YUV Chroma subsampling : 4:2:0 Bit depth : 10 bits Bits/(Pixel*Frame) : 0.259 Stream size : 8.55 GiB (61%) Title : | 借りぐらしのアリエッティ (Kari-gurashi no Arietti) [2010] | The Secret World Of Arrietty [2010] | 1080p | BDRip | x265 | DTS:HD MA 5.1 @ 4466 Kbps | Kira [SEV] | Writing library : x265 3.5+19-8003e4382:[Windows][MSVC 1929][64 bit] 10bit Encoding settings : cpuid=1111039 / frame-threads=3 / numa-pools=12 / wpp / no-pmode / no-pme / no-psnr / no-ssim / log-level=2 / input-csp=1 / input-res=1920x1080 / interlace=0 / total-frames=136682 / level-idc=0 / high-tier=1 / uhd-bd=0 / ref=5 / no-allow-non-conformance / no-repeat-headers / annexb / no-aud / no-eob / no-eos / no-hrd / info / hash=0 / no-temporal-layers / open-gop / min-keyint=23 / keyint=250 / gop-lookahead=0 / bframes=16 / b-adapt=2 / b-pyramid / bframe-bias=0 / rc-lookahead=100 / lookahead-slices=0 / scenecut=40 / no-hist-scenecut / radl=0 / no-splice / no-intra-refresh / ctu=64 / min-cu-size=8 / no-rect / no-amp / max-tu-size=32 / tu-inter-depth=4 / tu-intra-depth=4 / limit-tu=4 / rdoq-level=2 / dynamic-rd=0.00 / no-ssim-rd / signhide / no-tskip / nr-intra=0 / nr-inter=0 / no-constrained-intra / no-strong-intra-smoothing / max-merge=4 / limit-refs=1 / limit-modes / me=3 / subme=7 / merange=92 / temporal-mvp / no-frame-dup / no-hme / weightp / weightb / no-analyze-src-pics / deblock=0:0 / no-sao / no-sao-non-deblock / rd=6 / selective-sao=0 / no-early-skip / rskip / no-fast-intra / no-tskip-fast / no-cu-lossless / b-intra / no-splitrd-skip / rdpenalty=0 / psy-rd=1.50 / psy-rdoq=1.00 / no-rd-refine / no-lossless / cbqpoffs=0 / crqpoffs=0 / rc=crf / crf=17.0 / qcomp=0.60 / qpstep=4 / stats-write=0 / stats-read=0 / ipratio=1.40 / pbratio=1.30 / aq-mode=3 / aq-strength=1.30 / cutree / zone-count=0 / no-strict-cbr / qg-size=32 / no-rc-grain / qpmax=69 / qpmin=0 / no-const-vbv / sar=0 / overscan=0 / videoformat=5 / range=0 / colorprim=2 / transfer=2 / colormatrix=2 / chromaloc=0 / display-window=0 / cll=0,0 / min-luma=0 / max-luma=1023 / log2-max-poc-lsb=8 / vui-timing-info / vui-hrd-info / slices=1 / no-opt-qp-pps / no-opt-ref-list-length-pps / no-multi-pass-opt-rps / scenecut-bias=0.05 / hist-threshold=0.03 / no-opt-cu-delta-qp / no-aq-motion / no-hdr10 / no-hdr10-opt / no-dhdr10-opt / no-idr-recovery-sei / analysis-reuse-level=0 / analysis-save-reuse-level=0 / analysis-load-reuse-level=0 / scale-factor=0 / refine-intra=0 / refine-inter=0 / refine-mv=1 / refine-ctu-distortion=0 / no-limit-sao / ctu-info=0 / no-lowpass-dct / refine-analysis-type=0 / copy-pic=1 / max-ausize-factor=1.0 / no-dynamic-refine / no-single-sei / no-hevc-aq / no-svt / no-field / qp-adaptation-range=1.00 / scenecut-aware-qp=0conformance-window-offsets / right=0 / bottom=0 / decoder-max-rate=0 / no-vbv-live-multi-pass Language : Japanese Default : Yes Forced : No Audio #1 ID : 2 Format : DTS XLL Format/Info : Digital Theater Systems Commercial name : DTS-HD Master Audio Codec ID : A_DTS Duration : 1 h 35 min Bit rate mode : Variable Bit rate : 4 466 kb/s Channel(s) : 6 channels Channel layout : C L R Ls Rs LFE Sampling rate : 48.0 kHz Frame rate : 93.750 FPS (512 SPF) Bit depth : 24 bits Compression mode : Lossless Stream size : 2.96 GiB (21%) Title : Japanese BD DTS:HD MA 5.1 @ 4466 Kbps Language : Japanese Default : Yes Forced : No Audio #2 ID : 3 Format : DTS XLL Format/Info : Digital Theater Systems Commercial name : DTS-HD Master Audio Codec ID : A_DTS Duration : 1 h 35 min Bit rate mode : Variable Bit rate : 3 802 kb/s Channel(s) : 6 channels Channel layout : C L R Ls Rs LFE Sampling rate : 48.0 kHz Frame rate : 93.750 FPS (512 SPF) Bit depth : 24 bits Compression mode : Lossless Stream size : 2.52 GiB (18%) Title : English (US Dub) BD DTS:HD MA 5.1 @ 3802 Kbps Language : English Default : No Forced : No Text #1 ID : 4 Format : PGS Codec ID : S_HDMV/PGS Codec ID/Info : Picture based subtitle format used on BDs/HD-DVDs Duration : 1 h 33 min Bit rate : 13.9 kb/s Count of elements : 1078 Stream size : 9.32 MiB (0%) Title : English (For Japanese Audio) BD PGS Sub Language : English Default : Yes Forced : No Text #2 ID : 5 Format : PGS Codec ID : S_HDMV/PGS Codec ID/Info : Picture based subtitle format used on BDs/HD-DVDs Duration : 1 h 33 min Bit rate : 24.9 kb/s Count of elements : 1884 Stream size : 16.7 MiB (0%) Title : English (For US Dub) BD PGS Sub Language : English Default : No Forced : No Menu 00:00:00.000 : ja:Chapter 01 ... 01:31:00.329 : ja:Chapter 12 ``` Source Information ``` The.Secret.World.of.Arrietty.2010.Bluray.Hybrid.JPN.US.UK.1080p.AVC.DTS-HD.MA.5.1.REMUX-Machine (25.2 GB) ``` We have no issue with individuals posting or re-uploading our torrents on a platform we aren't on. However, if this is something you'd like to do, please do so in a 'as-is' format. We ask that you do not create a new torrent, include all descriptions you see above including the SEV logo, tags, notes and screenshots. If you'd like to become a permanent poster on a website we don't post to, feel free to get in contact with a Sublime Encoded Video member. We are recruiting/training new members for SEV & seedbox providers as well as people to help out with subtitles. As you already know, we deliver quality, so you know the standard. If you're interested, feel free to contact any of the team members.

File list

Kira_SEV (uploader)

User
@Lily-white Enjoy!