[MagicStar] JK kara Yarinaosu Silver Plan EP03 [WEBDL] [1080p] [AMZN] :: Nyaa ISS

[MagicStar] JK kara Yarinaosu Silver Plan EP03 [WEBDL] [1080p] [AMZN]

Category:
Date:
2021-11-25 01:23 UTC
Submitter:
Seeders:
5
Information:
Leechers:
3
File size:
1.1 GiB
Completed:
369
Info hash:
4dccc6b2fc59c9c881da44bfbcd92b8af8d8fbc3
HD 1080p from Prime Video. ![alt text](https://i.ibb.co/1GZVTpL/95400572210.jpg) ![alt text](https://i.ibb.co/Ps2Mq1F/JK-kara-Yarinaosu-Silver-Plan-EP03-1080p-AMZN-WEB-DL-DDP2-0-H-264-Magic-Star-mkv.jpg) ``` General Unique ID : 89704628042604078889584566680788246365 (0x437C7BA14882BEF4B0E709D196ED9F5D) Complete name : JK.kara.Yarinaosu.Silver.Plan.EP03.1080p.AMZN.WEB-DL.DDP2.0.H.264-MagicStar.mkv Format : Matroska Format version : Version 4 File size : 1.10 GiB Duration : 24 min 0 s Overall bit rate : 6 583 kb/s Encoded date : UTC 2021-11-24 23:58:43 Writing application : mkvmerge v50.0.0 ('Awakenings') 64-bit Writing library : libebml v1.4.0 + libmatroska v1.6.2 Cover : Yes Attachments : cover.png Video ID : 1 Format : AVC Format/Info : Advanced Video Codec Format profile : [email protected] Format settings : CABAC / 4 Ref Frames Format settings, CABAC : Yes Format settings, Reference fra : 4 frames Codec ID : V_MPEG4/ISO/AVC Duration : 23 min 59 s Bit rate : 6 356 kb/s Width : 1 920 pixels Height : 1 080 pixels Display aspect ratio : 16:9 Frame rate mode : Constant Frame rate : 29.970 (29970/1000) FPS Original frame rate : 29.970 (30000/1001) FPS Color space : YUV Chroma subsampling : 4:2:0 Bit depth : 8 bits Scan type : Progressive Bits/(Pixel*Frame) : 0.102 Stream size : 1.07 GiB (97%) Default : Yes Forced : No Color range : Limited Color primaries : BT.709 Transfer characteristics : BT.709 Matrix coefficients : BT.709 Audio ID : 2 Format : E-AC-3 Format/Info : Enhanced AC-3 Commercial name : Dolby Digital Plus Codec ID : A_EAC3 Duration : 24 min 0 s Bit rate mode : Constant Bit rate : 224 kb/s Channel(s) : 2 channels Channel layout : L R Sampling rate : 48.0 kHz Frame rate : 31.250 FPS (1536 SPF) Compression mode : Lossy Stream size : 38.5 MiB (3%) Language : Japanese Service kind : Complete Main Default : Yes Forced : No ```

File list