[KayRips] Men on a Mission (2015) Episode 278 [1080p][WEB-DL x264][Eng-Subs] :: Nyaa ISS

[KayRips] Men on a Mission (2015) Episode 278 [1080p][WEB-DL x264][Eng-Subs]

Category:
Date:
2021-05-04 08:31 UTC
Submitter:
Seeders:
2
Information:
Leechers:
0
File size:
2.8 GiB
Completed:
12
Info hash:
c3c7d02671cf64e483a9559ca9fb7c0218ad3695
DDL on discord https://discord.gg/whtT7vqfKB **Title :** Knowing Bros / 아는형님 / Knowing Brothers / Men On A Mission / Ask Us Anything **Episode :** 278 / S2021E17 **Country :** South Korea **Genre :** Korean Talk Show **Duration :** 1 h 44 min 25 sec ``` Video ID : 2 Format : AVC Format/Info : Advanced Video Codec Format profile : [email protected] Format settings : CABAC / 4 Ref Frames Format settings, CABAC : Yes Format settings, Reference frames : 4 frames Codec ID : V_MPEG4/ISO/AVC Duration : 1 h 47 min Bit rate mode : Variable Bit rate : 3 638 kb/s Maximum bit rate : 4 500 kb/s Width : 1 920 pixels Height : 1 080 pixels Display aspect ratio : 16:9 Frame rate mode : Constant Frame rate : 29.970 (30000/1001) FPS Original frame rate : 29.970 (29970/1000) FPS Color space : YUV Chroma subsampling : 4:2:0 Bit depth : 8 bits Scan type : Progressive Bits/(Pixel*Frame) : 0.059 Stream size : 2.72 GiB (97%) Title : [KayRips] Writing library : VOLO1.4.1 Default : Yes Forced : No Audio ID : 3 Format : AAC LC Format/Info : Advanced Audio Codec Low Complexity Codec ID : A_AAC-2 Duration : 1 h 47 min Bit rate : 96.0 kb/s Channel(s) : 2 channels Channel layout : L R Sampling rate : 48.0 kHz Frame rate : 46.875 FPS (1024 SPF) Compression mode : Lossy Delay relative to video : -42 ms Stream size : 73.6 MiB (3%) Language : Korean Default : Yes Forced : No ``` ![alt text](https://i.ibb.co/Cz9QcXK/Kay-Rips-Men-on-a-Mission-2015-S2021-E17-278-mkv-20210504-154814-111.png)

File list

  • [KayRips] Men on a Mission (2015) - S2021E17 (278) .mkv (2.8 GiB)